Motion Graphics & videostock:

Colorful Europe map, 2014 political distribution (animated)

Video specs
Codec : Quicktime Jpg
Duration   : 11s 64ms
Width   : 1 920 pixels
Height     : 1 080 pixels
Display aspect ratio  : 16:9
Frame rate : 29.970 fps
Chroma subsampling   : 4:2:2
Bit depth   : 8 bits
Stream size    : 132 MiB (100%)


Interface for a virtual control panel

Video specs
Codec : Quicktime Jpg
Duration   : 21s 42ms
Width   : 1 920 pixels
Height     : 1 080 pixels
Display aspect ratio  : 16:9
Frame rate : 29.970 fps
Chroma subsampling   : 4:2:2
Bit depth   : 8 bits
Stream size    : 172 MiB (100%)


News & internet blue theme.

Video specs
Codec : Quicktime Jpg
Duration   : 14s 47ms
Width   : 1 920 pixels
Height     : 1 080 pixels
Display aspect ratio  : 16:9
Frame rate : 29.970 fps
Chroma subsampling   : 4:2:2
Bit depth   : 8 bits
Stream size    : 119 MiB (100%)


News theme, Red

news_red_sm.jpg

Video specs
Codec : Quicktime Jpg
Duration   : 21s 420ms
Width   : 1 920 pixels
Height     : 1 080 pixels
Display aspect ratio  : 16:9
Frame rate : 29.970 fps
Chroma subsampling   : 4:2:2
Bit depth   : 8 bits
Stream size    : 172 MiB (100%)


Also you can find more animations and videostock at:

Royalty-Free Stock Video at Pond5